Legacies S01 E03 720p 10bit 2CH x265 HEV Torrent Free Download

Seeders : 57   &   Leechers : 613      09-11-2018 (1 week)
Legacies S01 E03 720p 10bit 2CH x265 HEV Torrent Download
Added: ago by ENX265 ***** in TV   187.4 MB   Hits : 31
Info Hash: 0C39216ACF6757E44B99D0D919C8EF833139DB5A Download
Legacies S01 E03 720p 10bit 2CH x265 HEV Torrent Download

Anonymous and Direct Download movies , software , shows...

Fast Safe Anonymous
movies, software, shows...

Torrent Description



Please post your requests at

ENX265.Com




CHECK SAMPLE
http://enx265.com/download-legacies-2018-s01e03-720p-10bit-hdtv-2ch-x265-hevc-esub/

Code:

eneral

Format : Matroska
Format version : Version 4
File size : 187 MiB
Duration : 42 min 13 s
Overall bit rate : 621 kb/s
Encoded date : UTC 2018-11-09 06:27:23 / UTC 2018-11-09T05:34:33Z
Writing application : mkvmerge v9.9.0 ('Pick Up') 64bit
Writing library : libebml v1.3.4 + libmatroska v1.4.5 / Lavf57.7.2

Video
ID : 1
Format : HEVC
Format/Info : High Efficiency Video Coding
Format profile : Main [email protected]@Main
Codec ID : V_MPEGH/ISO/HEVC
Duration : 42 min 13 s
Bit rate : 458 kb/s
Width : 1 280 pixels
Height : 718 pixels
Display aspect ratio : 16:9
Frame rate mode : Constant
Frame rate : 23.976 (24000/1001) FPS
Color space : YUV
Chroma subsampling : 4:2:0
Bit depth : 10 bits
Bits/(Pixel*Frame) : 0.021
Stream size : 138 MiB (74%)
Writing library : x265 2.6:[Windows][GCC 7.3.0][64 bit] 10bit

Default : Yes
Forced : No
Color range : Limited
Color primaries : BT.709
Transfer characteristics : BT.709
Matrix coefficients : BT.709

Audio
ID : 2
Format : AAC LC
Format/Info : Advanced Audio Codec Low Complexity
Codec ID : A_AAC-2
Duration : 42 min 13 s
Bit rate : 160 kb/s
Channel(s) : 2 channels
Channel layout : L R
Sampling rate : 48.0 kHz
Frame rate : 46.875 FPS (1024 SPF)
Compression mode : Lossy
Stream size : 48.4 MiB (26%)
Title : Stereo
Default : Yes
Forced : No




Sharing Widget


No Comments For This Torrent . Be The First to Comment

You must Login to Comment . Click Here to Login

Menu 1

Some content in menu 1.

Legacies S01 E03 720p 10bit 2CH x265 HEVC - ENX265 (Size: 187.4 MB)
  Legacies S01 E03 720p 10bit 2CH x265 HEVC - ENX265 187.4 MB
tracker name
udp://tracker.leechers-paradise.org:6969/announce
udp://zer0day.ch:1337/announce
udp://open.demonii.com:1337/announce
udp://tracker.coppersurfer.tk:6969/announce
udp://exodus.desync.com:6969/announce
µTorrent compatible trackers list

Relative Torrents

Torrent Name Size Age SEED LEECH
Klaudia Gawlas - Faze DJ-Set No 80 (201)
Posted by    Ziggy90   in   Music
430.9 MB 39 seconds 364 897
Beatport Exclusives Only - Week 46 (2018
Posted by    Ziggy90   in   Music
323.3 MB 3 minutes 91 153
Juliet Sikora - Faze DJ-Set No 78 (2018
Posted by    Ziggy90   in   Music
402.2 MB 3 minutes 653 868
Shadow of the Tomb Raider: Croft Edition(v1 0 237 6 + 19 DLCs + CoOp, MULTi12)
Posted by    FitGirl   in   Games
42.3 GB 5 minutes 578 724
Detective K Secret of Virtuous Widow 201 KOREAN 720p BluRay H264 AAC-VXT
Posted by    Trige   in   Movies
1.4 GB 9 minutes 218 492