Aquaman 2018 Movies HD Cam x264 Clean Au Torrent Free Download

Seeders : 77   &   Leechers : 647      07-12-2018 (2 days)
Aquaman 2018 Movies HD Cam x264 Clean Au Torrent Download
Added: ago by nehalpuja ***** in Movies   709.0 MB   Hits : 17
Info Hash: 87F96C8B2931168E561A5F5B2F00FD09C55942B8 Download
Aquaman 2018 Movies HD Cam x264 Clean Au Torrent Download

Anonymous and Direct Download movies , software , shows...

Fast Safe Anonymous
movies, software, shows...
Aquaman
Short /Action /Adventure  .   42 min   7.3/10
Director : Greg Beeman  
Writer: Alfred Gough  Miles Millar  
Tags: Aquaman  2018  Movies  HD  Cam  x264  

Released:
24 Jul 2006
Tempest Key, Florida. Arthur Curry aka A.C. is a happy go lucky 20-something dive shop owner who lives on a houseboat next to the coast guard base where his caring adoptive father Lieutenant Tom Curry works. His best friend is Eva, the pretty owner of the local bea.... See More ch bar. It's been exactly 10 years since the tragic unexplained plane crash in which Arthur's mother disappeared without a trace and only young traumatized Arthur was found alive. In the accident, Arthur discovered that he somehow has the ability to breathe underwater which he later turned to good use. However, he's still burdened by survivor's guilt and hopes he'll one day find out what really happened to his mother. After rescuing some dolphins that he suddenly felt the need to rescue from the local Neptune World marine park, Arthur is arrested by the sheriff. The day only gets more unnerving for Arthur when Eva semi-seriously threatens him with eviction and a strange intense man called McCaffery warns him about the challenges that he is about to face since the past is about to come calling. Meanwhile, coast guard Lt. Rachel Torres takes her jet plane to Mercy Reef where a sighting of a man lost at see has been reported. However, a strange beam bursts out of the ocean and downs her plane. Luckily, Arthur arrives to her rescue. Later, secretive Agent Brigman shows up at the base to question her about the incident. In the evening, Arthur meets an incredibly attractive girl called Nadia who shows interest in him and asks him if he wants to go skinny dipping with her. He feels somehow obligated to accept but just as they go in the water and start making out, Arthur is viciously attacked. He is about to learn his true origin and choose whether or not he wants to accept the huge responsibility he has both in the ocean and on the surface. This failed pilot was based on popular comic book of the same name.

Torrent Description



Aquaman 2018 Movies HD Cam x264 Clean Audio New Source with Sample ☻rDX☻
===============================================================================================

SCREEN SHOTS:



or

http://iphonehosting.eu/2018/11/b/banking/1.html

File size : 704 MiB
Duration : 2 h 10 min
Overall bit rate mode : Constant
Overall bit rate : 751 kb/s
Movie name : Aquaman 2018 Movies HD Cam x264 Clean Audio New Source ☻rDX☻

Video
ID : 2
Format : AVC
Format/Info : Advanced Video Codec
Format profile : [email protected]
Format settings, CABAC : Yes
Format settings, ReFrames : 2 frames
Format settings, GOP : M=1, N=12
Codec ID : V_MPEG4/ISO/AVC
Duration : 2 h 10 min
Bit rate mode : Constant
Bit rate : 688 kb/s
Width : 700 pixels
Height : 274 pixels
Display aspect ratio : 2.555
Frame rate mode : Constant
Frame rate : 23.976 (24000/1001) FPS
Color space : YUV
Chroma subsampling : 4:2:0
Bit depth : 8 bits
Scan type : Progressive
Bits/(Pixel*Frame) : 0.150
Stream size : 630 MiB (89%)
Title : ☻rDX☻
Default : Yes
Forced : No

Audio
ID : 1
Format : AC-3
Format/Info : Audio Coding 3
Mode extension : CM (complete main)
Format settings, Endianness : Big
Codec ID : A_AC3
Duration : 2 h 10 min
Bit rate mode : Constant
Bit rate : 64.0 kb/s
Channel(s) : 2 channels
Channel positions : Front: L R
Sampling rate : 44.1 kHz
Frame rate : 28.711 FPS (1536 spf)
Bit depth : 16 bits
Compression mode : Lossy
Stream size : 59.9 MiB (9%)
Title : ☻rDX☻
Default : Yes
Forced : No

http://www.imdb.com/title/tt1477834




Sharing Widget


No Comments For This Torrent . Be The First to Comment

You must Login to Comment . Click Here to Login

Menu 1

Some content in menu 1.

Aquaman 2018 Movies HD Cam x264 Clean Audio New Source with Sample ☻ (Size: 709.0 MB)
  Aquaman 2018 Movies HD Cam x264 Clean Audio New Source with Sample ☻ 709.0 MB
tracker name
udp://tracker.leechers-paradise.org:6969/announce
udp://zer0day.ch:1337/announce
udp://open.demonii.com:1337/announce
udp://tracker.coppersurfer.tk:6969/announce
udp://exodus.desync.com:6969/announce
µTorrent compatible trackers list

Relative Torrents

Torrent Name Size Age SEED LEECH
Don't Look Under the Bed (1999) Disney DOM 720p HDRip x264 Eng Subs [Dual Audio
Posted by    DrSTAR   in   Movies
1.3 GB 16 minutes 868 803
Kaya The Mystery Unfolds 2018 Untouched ebDL Bengali 1080p AVC AAC - mkvCinemas
Posted by    mkvCinemas   in   Movies
10.1 GB 16 minutes 737 447
Heaven and Hell 2018 HDRip XviD AC3-EVO[Gx]
Posted by    mazemaze16   in   Movies
1.4 GB 25 minutes 694 490
Goosebumps 2: Haunted Halloween (2018)[70p - HDRip - Line Auds [Tamil + Telugu
Posted by    anily   in   Movies
976.4 MB 25 minutes 159 984
Goosebumps 2: Haunted Halloween (2018)[180p - HDRip - Line Auds [Tamil + Telugu
Posted by    anily   in   Movies
3.3 GB 25 minutes 184 482