A Wednesday (2008) Hindi 720p WEB-DL AVC Torrent Free Download

Seeders : 494   &   Leechers : 751      09-11-2018 (1 week)
A Wednesday (2008) Hindi 720p WEB-DL AVC Torrent Download
Added: ago by Sungeorge ***** in Movies   1.4 GB   Hits : 22
Info Hash: 8B07720E189E1EB09E7BABC78EE8A6CC503DEB00 Download
A Wednesday (2008) Hindi 720p WEB-DL AVC Torrent Download

Anonymous and Direct Download movies , software , shows...

Fast Safe Anonymous
movies, software, shows...
A Wednesday
Crime /Drama /Mystery  .   104 min   8.2/10
Director : Neeraj Pandey  
Tags: A  Wednesday  (2008)  Hindi  720p  WEB-DL  

Released:
05 Sep 2008
A man calls up the Mumbai police, and tells them he has placed five different bombs in the city -- all set to go off in some time. He wants four terrorists in exchange. Does he get them? Who is behind it all? What's his motive? Is there more than meets the eye?

Torrent Description



A Wednesday (2008) Hindi 720p WEB-DL AVC AC3 5.1 ESubs-Sun George



http://www.imdb.com/title/tt1280558/






===================================================================


General
Format : Matroska
Format version : Version 4 / Version 2
File size : 1.38 GiB
Duration : 1 h 43 min
Overall bit rate : 1 904 kb/s
Movie name : A Wednesday (2008) Hindi 720p WEB-DL AVC AC3 5.1 ESubs-Sun George


===================================================================


Video
ID : 1
Format : AVC
Format/Info : Advanced Video Codec
Format profile : [email protected]
Format settings : CABAC / 4 Ref Frames
Format settings, CABAC : Yes
Format settings, RefFrames : 4 frames
Codec ID : V_MPEG4/ISO/AVC
Duration : 1 h 43 min
Bit rate : 1 519 kb/s
Width : 1 280 pixels
Height : 720 pixels
Display aspect ratio : 16:9
Frame rate mode : Variable
Frame rate : 23.976 FPS
Color space : YUV
Chroma subsampling : 4:2:0
Bit depth : 8 bits
Scan type : Progressive
Bits/(Pixel*Frame) : 0.069
Stream size : 1.10 GiB (80%)
Title : Sun George


===================================================================


Audio
ID : 3
Format : AC-3
Format/Info : Audio Coding 3
Codec ID : A_AC3
Duration : 1 h 43 min
Bit rate mode : Constant
Bit rate : 384 kb/s
Channel(s) : 6 channels
Channel positions : Front: L C R, Side: L R, LFE
Sampling rate : 48.0 kHz
Frame rate : 31.250 FPS (1536 SPF)
Bit depth : 16 bits
Compression mode : Lossy
Stream size : 284 MiB (20%)
Title : Sun George
Language : Hindi
Service kind : Complete Main
Default : No
Forced : No

Text
ID : 2
Format : ASS
Codec ID : S_TEXT/ASS
Codec ID/Info : Advanced Sub Station Alpha
Duration : 1 h 37 min
Bit rate : 88 b/s
Count of elements : 1057
Compression mode : Lossless
Stream size : 63.3 KiB (0%)
Title : Sun George
Writing library : Lavc57.42.100 ssa
Language : English
Default : Yes
Forced : Yes
















Sharing Widget


No Comments For This Torrent . Be The First to Comment

You must Login to Comment . Click Here to Login

Menu 1

Some content in menu 1.

A Wednesday (2008) Hindi 720p WEB-DL AVC AC3 5 1 ESubs-Sun George (Size: 1.4 GB)
  A Wednesday (2008) Hindi 720p WEB-DL AVC AC3 5 1 ESubs-Sun George 1.4 GB
tracker name
udp://tracker.leechers-paradise.org:6969/announce
udp://zer0day.ch:1337/announce
udp://open.demonii.com:1337/announce
udp://tracker.coppersurfer.tk:6969/announce
udp://exodus.desync.com:6969/announce
µTorrent compatible trackers list

Relative Torrents

Torrent Name Size Age SEED LEECH
Klaudia Gawlas - Faze DJ-Set No 80 (201)
Posted by    Ziggy90   in   Music
430.9 MB 2 minutes 364 897
MVMB And Nanoplex Presents Alpha Inceptin (2018)
Posted by    Ziggy90   in   Music
246.2 MB 2 minutes 220 502
Beatport Exclusives Only - Week 46 (2018
Posted by    Ziggy90   in   Music
323.3 MB 5 minutes 91 153
Juliet Sikora - Faze DJ-Set No 78 (2018
Posted by    Ziggy90   in   Music
402.2 MB 5 minutes 653 868
Katermukke Presents Playground VI (2018)
Posted by    Ziggy90   in   Music
248.4 MB 5 minutes 743 925